#TITLE:Title Screen;
#SUBTITLE:Mischief Makers;
#ARTIST:Treasure;
#TITLETRANSLIT:;
#SUBTITLETRANSLIT:;
#ARTISTTRANSLIT:;
#CREDIT:;
#BANNER:Title Screen.png;
#BACKGROUND:Title Screen-bg.png;
#LYRICSPATH:;
#CDTITLE:!exige.png;
#MUSIC:Title Screen.mp3;
#OFFSET:-0.355;
#SAMPLESTART:34.240;
#SAMPLELENGTH:17.000;
#SELECTABLE:YES;
#BPMS:0.000=127.000;
#STOPS:;
#BGCHANGES:;
// cache tags:
#FIRSTBEAT:0.000;
#LASTBEAT:143.750;
#SONGFILENAME:Songs/Music V.I.P ^_^/Title Screen (Exige)/Title Screen.sm;
#HASMUSIC:1;
#HASBANNER:1;
#MUSICLENGTH:78.582;
// end cache tags

//---------------dance-single - ----------------
#NOTES:
     dance-single:
     :
     Hard:
     12:
     1.000,1.000,1.000,0.865,1.000,410.000,81.000,68.000,0.000,0.000:
0000
0000
0000
0000
,
0201
0000
1000
0000
0010
0000
0001
1000
0010
0000
1000
0000
0010
0000
1000
0000
,
0301
0000
0100
0000
1001
0000
0100
1000
1100
1000
1000
0000
0101
0000
1000
0000
,
1002
0000
0100
0000
0010
0000
0100
1000
0010
0000
1000
0000
0010
0000
1000
0000
,
0010
0000
0000
0000
0000
0000
0100
0000
0000
0000
0000
0000
0010
0000
0000
0000
0000
0000
0100
0000
0000
1000
0000
0000
0100
0000
0000
0100
0000
0000
0100
0000
0000
0013
0000
0000
0001
0000
0000
1000
0000
0000
0100
0000
0010
0001
1000
0000
,
0210
0000
1000
0000
0001
0000
0010
1000
0001
0000
1000
0000
0001
0000
1000
0000
,
0301
0000
1000
0000
0100
0100
0101
1100
1100
1000
1000
0000
0101
0000
1000
0000
,
1002
0000
0100
0000
0010
0000
0100
1000
0100
0000
1000
0000
0010
0000
1000
0000
,
0010
0000
0000
0000
0000
0000
0100
0000
0000
0000
0000
0000
0010
0000
0000
0000
0000
0000
0100
0000
0000
1000
0000
0000
0010
0000
0000
0100
0000
0000
1000
0000
0100
0000
0010
0000
1000
0000
0000
0010
0000
0000
0103
0000
0000
1000
0000
0000
,
0201
0000
0010
0000
0001
0000
0001
1000
0010
0000
1000
0000
0001
0000
1000
0000
,
0320
0000
0001
0000
0100
0000
0001
1000
0100
1000
1000
0000
0001
0000
1000
0000
,
0032
0000
0010
0000
0100
0000
0010
1000
0010
0000
1000
0000
0010
0000
1000
0000
,
0010
0000
0000
0000
0000
0000
0010
0000
0000
0000
0000
0000
0100
0000
0000
0000
0000
0000
0010
0000
0000
1000
0000
0000
0100
0000
0000
1000
0000
0000
1000
0000
0000
0000
0000
0000
0013
0000
0000
0001
0000
0000
1001
0000
0100
0001
0010
0000
,
0201
0001
0000
0001
0001
0001
0000
0001
0001
0001
0000
0001
0001
0001
0000
0001
,
0301
0001
0000
0001
0001
0001
0000
0001
0001
0001
0000
0001
0001
0001
0000
0001
,
2001
0001
0000
0001
0001
0001
0000
0001
0001
0001
0000
0001
0001
0001
0000
0001
,
0001
0000
0000
0001
0000
0000
0000
0000
0000
0001
0000
0000
0001
0000
0000
0001
0000
0000
0000
0000
0000
0001
0000
0000
0001
0000
0010
0000
0100
0000
0001
0000
0010
0000
0100
0000
3001
0000
0000
1000
0000
0000
0100
0000
0000
1000
0000
0000
,
0020
0000
0000
0030
0000
0000
0000
0000
0000
0020
0000
0000
0030
0000
0000
0000
0000
0000
0020
0000
0000
0030
0000
0000
0000
0000
0000
0120
0000
0000
0030
0000
0000
0000
0000
0000
0120
0000
0000
0030
0000
0000
0120
0000
1000
0030
0100
0000
,
1002
0023
1000
0230
0001
0000
0301
0000
0102
0023
1000
0230
0001
0000
0310
0000
,
1002
0023
1000
0230
0001
0000
0310
0000
0011
0000
2100
3000
0201
0300
0021
0030
,
1002
0023
0130
2000
0001
3000
0102
0023
0031
2000
0001
3000
2010
3000
0201
0000
,
0001
0000
0000
0000
0000
0000
0301
0000
0000
0000
0000
0000
1002
0000
0000
0003
0000
0000
1200
0000
0000
0300
0000
0000
0011
0000
0000
0200
0000
0000
0301
0000
0000
0000
0000
0000
0210
0000
0000
0300
0000
0000
0201
0000
1000
0300
0010
0000
,
1002
0023
1000
0230
0001
0000
0310
0000
0102
0023
1000
0230
0001
0000
0310
0000
,
0102
0023
1000
0230
0001
0001
0301
0001
0001
0000
2010
3000
0201
0300
0021
0030
,
1002
0023
0130
2000
3010
0000
0102
0023
0031
2000
3010
0000
2001
3000
0201
0300
,
0101
0000
0000
0000
0000
0000
0210
0000
0000
0300
0000
0000
1200
0000
0000
0000
0000
0000
0010
0000
0000
0000
0000
0000
0001
0000
0000
0010
0000
0000
1000
0000
0010
0000
0001
0000
0010
0000
0000
1000
0000
0000
0010
0000
0000
1000
0000
0000
,
0001
0000
0000
0001
0000
0000
0301
0000
0000
0001
0000
0000
0001
0000
0000
0001
0000
0000
0001
0000
0000
0001
0000
0000
0001
0000
0010
0001
0100
0000
1001
0000
0010
0000
0100
0000
1000
0000
0001
0000
0010
0000
0100
0000
1000
0000
0010
0000
,
0201
0010
0000
0010
0000
0000
0320
1000
0001
0000
0000
0000
0001
0100
0032
0000
,
0000
0000
0010
1000
0100
0000
0000
0000
0000
0000
0100
0100
0013
0000
0100
0100
,
1200
0010
0000
0010
0000
0000
0320
0100
0000
0100
0000
0000
0100
0000
0032
0000
,
0000
0000
0000
1000
0000
0000
0000
0000
0000
0000
0000
0000
1000
0010
0103
1000
,
0001
0011
0100
1001
0001
0001
0100
1001
0011
0001
0000
0001
0011
0101
1000
0001
,
0001
0000
0000
0001
0000
0000
0100
0000
0000
1001
0000
0000
0011
0000
0000
0001
0000
0000
0000
0000
0000
0001
0000
0000
0001
0000
0000
0001
0000
0000
0100
0000
0000
0101
0000
0000
1001
0000
0000
0001
0000
0000
1000
0000
0100
1001
0010
0000
,
0101
1001
0000
1001
0001
0001
0100
1001
0001
1001
0000
0001
0101
0001
1000
0001
,
1001
0000
0000
0001
0000
0000
0000
0000
0000
0101
0000
0000
0011
0000
0000
0001
0000
0000
0000
0000
0000
0001
0000
0000
0001
0000
0000
0001
0000
0000
0000
0000
0000
0001
0000
0000
0011
0000
0000
0001
0000
0000
1000
0000
0100
0001
0010
0000
,
1001
0001
0010
0001
0101
0001
1000
0001
0011
1001
0110
0011
1001
0101
1100
1001
;

//---------------dance-single - ----------------
#NOTES:
     dance-single:
     :
     Edit:
     15:
     1.000,1.000,1.000,0.127,1.000,869.000,221.000,10.000,26.000,126.000:
1000
0000
0000
0000
0100
0000
0000
0000
0010
0000
0000
0000
0001
0000
0000
0000
0000
0000
0010
0000
0000
0000
0000
0000
0100
0000
0000
0000
0000
0000
1000
0000
0000
0000
0000
0000
0100
0000
0000
0000
0000
0000
0010
0000
0000
0000
0000
0000
0001
0000
0000
0000
0010
0000
0000
0000
0100
0000
0000
0000
1000
0000
0000
0000
0100
0000
0000
0000
0010
0000
0000
0000
0001
0000
0000
0000
0000
0000
0010
0000
0000
0000
0000
0000
0100
0000
0000
0000
0000
0000
1000
0000
0000
0000
0000
0000
0100
0000
0000
0000
0010
0000
0000
0000
0001
0000
0000
0000
0010
0000
0000
0000
0100
0000
0000
0000
1000
0000
0000
0000
0100
0000
0000
0000
0000
0000
0010
0000
0000
0000
0000
0000
0001
0000
0000
0000
0000
0000
0010
0000
0000
0000
0000
0000
0100
0000
0000
0000
1000
0000
0000
0000
0100
0000
0000
0000
0010
0000
0000
0000
0001
0000
0000
0000
0010
0000
0000
0000
0100
0000
0000
0000
0000
0000
1000
0000
0000
0000
0000
0000
0100
0000
0000
0000
0000
0000
0010
0000
0000
0000
0000
0000
,
1001
0000
0000
0000
0000
0000
0000
0000
0100
0000
0000
0000
0000
0000
0000
0000
1000
0000
0000
0000
0000
0000
0000
0000
0100
0000
0000
0000
0000
0000
0010
0000
1000
0000
0000
0000
0000
0000
0000
0000
0001
0000
0000
0000
0000
0000
0000
0000
0110
0000
0000
0000
0000
0000
0000
0000
0001
0000
0000
0000
0000
0000
0000
0000
0010
0000
0000
0000
0000
0000
0000
0000
0100
0000
0000
0000
0000
0000
0000
0000
1000
0000
0000
0000
0000
0000
0000
0000
0100
0000
0010
0000
0000
0000
0000
0000
1001
0000
0000
0000
0000
0000
0000
0000
0010
0000
0000
0000
0000
0000
0000
0000
0001
0000
0000
0000
0000
0000
0000
0000
0010
0000
0000
0000
0000
0000
0100
0000
0001
0000
0000
0000
0000
0000
0000
0000
1000
0000
0000
0000
0000
0000
0000
0000
0110
0000
0000
0000
0000
0000
0000
0000
1000
0000
0000
0000
0000
0000
0000
0000
0100
0000
0000
0000
0000
0000
0000
0000
0010
0000
0000
0000
0000
0000
0000
0000
0001
0000
0000
0000
0000
0000
0000
0000
0010
0000
0100
0000
0000
0000
0000
0000
,
1001
0000
0000
0000
0000
0000
0010
0000
0100
0000
0000
0000
0000
0000
0000
0000
0001
0000
1000
0000
0000
0000
0000
0000
0010
0000
0000
0000
0000
0000
0000
0000
0001
0000
0000
0000
0000
0000
0000
0000
1000
0000
0000
0000
0000
0000
0000
0000
0110
0000
0000
0000
0000
0000
0000
0000
1000
0000
0000
0000
0000
0000
0000
0000
0100
0000
0000
0000
0000
0000
0000
0000
0010
0000
0000
0000
0000
0000
0000
0000
0100
0000
0000
0000
0000
0000
0000
0000
0010
0000
0100
0000
0000
0000
0000
0000
1001
0000
0000
0000
0000
0000
0100
0000
0010
0000
0000
0000
0000
0000
0000
0000
0001
0000
0010
0000
0000
0000
0000
0000
1000
0000
0000
0000
0000
0000
0000
0000
0001
0000
0000
0000
0000
0000
0000
0000
1000
0000
0000
0000
0000
0000
0000
0000
0101
0000
0000
0000
0000
0000
0000
0000
0010
0000
0000
0000
0000
0000
0000
0000
0100
0000
0000
0000
0000
0000
0000
0000
1000
0000
0000
0000
0000
0000
0100
0000
0001
0000
0000
0000
0010
0000
0000
0000
1000
0000
0001
0000
0000
0000
0000
0000
,
1220
1000
0000
1000
1000
0000
0001
0001
0000
0001
0001
0000
1000
1000
0000
1000
1000
0000
0001
0001
0000
1000
1000
0000
,
0001
0000
0000
0000
0000
0000
0000
0000
0001
0000
0000
0000
0000
0000
0000
0000
0000
0000
0000
0000
0000
0000
0000
0000
0001
0000
0000
0000
0000
0000
0000
0000
0001
0000
0000
0000
0000
0000
0000
0000
0000
0000
0000
0000
0000
0000
0000
0000
0001
0000
0000
0000
0000
0000
0000
0000
0001
0000
0000
0000
0000
0000
0000
0000
0000
0000
0000
0000
0000
0000
0000
0000
0001
0000
0000
0000
0000
0000
0000
0000
0001
0000
0000
0000
0000
0000
0000
0000
0000
0000
0000
0000
0000
0000
0000
0000
1000
0000
0000
0000
0000
0000
0000
0000
1000
0000
0000
0000
0000
0000
0000
0000
0000
0000
0000
0000
0000
0000
0000
0000
1000
0000
0000
0000
0000
0000
0000
0000
1000
0000
0000
0000
0000
0000
0000
0000
0000
0000
0000
0000
0000
0000
0000
0000
1000
0000
0000
0000
0000
0000
0000
0000
0000
0000
0000
0000
0330
0000
0000
0000
1000
0000
0001
0000
0000
0000
0000
0000
0100
0000
0000
0000
0000
0000
0001
0000
0010
0000
0000
0000
0100
0000
0000
0000
0001
0000
1000
0000
0000
0000
0000
0000
,
0110
0000
0000
0110
1000
0000
0011
0000
0000
0011
0100
0000
1001
0000
0000
1001
0010
0000
1100
0000
0000
1100
0001
0000
1010
0000
0000
1010
0001
0000
0110
0000
0000
0110
1000
0000
0101
0000
0000
0101
1000
0000
0011
0000
0000
0011
0100
0000
,
1010
0000
0000
1010
0000
0000
0101
0000
0000
0101
1000
0000
0110
0000
0000
0110
0001
0000
1010
0000
0000
1010
0001
0000
1100
0000
0000
1100
0010
0000
1001
0000
0000
1001
0010
0000
0100
0000
0010
1001
0000
0000
1001
0000
0010
0000
0100
0000
,
2012
0010
0000
0000
0100
0100
0000
0000
0010
0010
0000
0000
0100
0100
0000
0000
0010
0010
0000
0000
0100
0100
0000
0000
0010
0010
0000
0000
0100
0100
0000
0000
,
0010
0000
0000
0000
0000
0000
0010
0000
0000
0000
0000
0000
0000
0000
0000
0000
0000
0000
0000
0000
0000
0000
0000
0000
0010
0000
0000
0000
0000
0000
0010
0000
0000
0000
0000
0000
0000
0000
0000
0000
0000
0000
0000
0000
0000
0000
0000
0000
0100
0000
0000
0000
0000
0000
0100
0000
0000
0000
0000
0000
0000
0000
0000
0000
0010
0000
0000
0000
0000
0000
0000
0000
0100
0000
0000
0000
0000
0000
0100
0000
0000
0000
0000
0000
0000
0000
0000
0000
0000
0000
0000
0000
0000
0000
0000
0000
0010
0000
0000
0000
0000
0000
0010
0000
0000
0000
0000
0000
0000
0000
0000
0000
0100
0000
0000
0000
0000
0000
0000
0000
0010
0000
0000
0000
0000
0000
0010
0000
0000
0000
0000
0000
0000
0000
0000
0000
0000
0000
0000
0000
0000
0000
0000
0000
0100
0000
0000
0000
0000
0000
0100
0000
0000
0000
0000
0000
0000
0000
0000
0000
0010
0000
0000
0000
0000
0000
0000
0000
3103
0000
0000
0000
0000
0000
0000
0000
0010
0000
0000
0000
0000
0000
0000
0000
0100
0000
0000
0000
0000
0000
0000
0000
,
1001
0010
0001
1000
0100
1000
0010
0100
0010
1000
0001
1000
0010
0100
0010
1000
0100
0001
1000
0001
0010
1000
0001
1000
0100
0001
1000
0001
1000
0100
0001
1000
,
0001
1000
0100
0001
1000
0001
0010
0100
1000
0001
1000
0100
0001
1000
0010
0001
1000
0001
0010
1000
0001
1000
0001
0010
0100
1000
0001
0010
0001
1000
0100
0010
,
0001
1000
0001
1000
0100
0010
0100
1000
0001
1000
0001
0010
0100
0010
0001
1000
0100
0001
0010
1000
0100
0001
0010
0100
0001
0010
0001
0100
0010
0001
1000
0100
,
1000
0010
0100
1000
0001
0010
0001
1000
0100
0010
0001
0100
0010
0100
0001
0010
0001
1000
0100
1000
0010
0100
0010
1000
0001
1000
0010
0100
0010
1000
0100
1000
,
0101
0010
0001
0100
0010
0100
0001
0010
1100
0001
0010
0001
1000
0100
0010
1000
0101
0010
0100
1000
0001
0010
0100
1000
0011
0100
1000
0001
0010
0100
0010
0100
,
1001
0010
0001
0100
0010
0001
0010
0001
1100
0010
0001
0010
0001
1000
0100
0010
1001
0100
0010
0001
1000
0010
0100
0001
1010
0100
0001
0100
0010
1000
0100
0010
,
1001
0100
0010
1000
0100
0001
0010
0100
1001
0100
0010
0001
1000
0100
0010
0001
1100
0010
0001
0010
0001
0010
0100
1000
0011
1000
0100
0010
0001
0010
0001
0010
,
1100
0001
0010
0100
1000
0001
0010
0100
1001
0100
0010
0001
1000
0100
0010
0001
1100
0001
0010
0100
0001
0010
0100
1000
0011
0100
1000
0001
0110
0000
0000
0000
,
1111
0000
1111
0000
0000
0000
1111
0000
1111
0000
0000
0000
1111
0000
1111
0000
0000
0000
1111
0000
1111
0000
0000
0000
1111
0000
1111
0000
0011
1100
0011
1100
,
0011
0000
0110
1000
0001
1000
0110
0001
1000
0100
0010
0000
1100
0000
0010
0001
1010
0001
1010
0001
0100
1000
0011
0100
1000
0010
0100
1000
0011
0100
1000
0001
,
0110
0000
0000
0000
0000
0000
1000
0000
0000
0000
0000
0000
0001
0000
0000
0000
0110
0000
0000
0000
0000
0000
0000
0000
1000
0000
0000
0000
0000
0000
0001
0000
0110
0000
0000
0000
1000
0000
0000
0000
0001
0000
0110
0000
0000
0000
0000
0000
1000
0000
0000
0000
0000
0000
0000
0000
0110
0000
0000
0000
0000
0000
0000
0000
0001
0000
0000
0000
0000
0000
0000
0000
0110
0000
0000
0000
0000
0000
0000
0000
1000
0000
0000
0000
0000
0000
0000
0000
0011
0000
0000
0000
0000
0000
0000
0000
0100
0000
0000
0000
0000
0000
0000
0000
1000
0000
0000
0000
0000
0000
0000
0000
0110
0000
0000
0000
0000
0000
0000
0000
0001
0000
0000
0000
0000
0000
0000
0000
0110
0000
0000
0000
0000
0000
0000
0000
1000
0000
0000
0000
0000
0000
0000
0000
0110
0000
0000
0000
0000
0000
0000
0000
0001
0000
0000
0000
0000
0000
0000
0000
0110
0000
0000
0000
0000
0000
0000
0000
1000
0000
0000
0000
0000
0000
0000
0000
0001
0000
0000
0000
0000
0000
0000
0000
0110
0000
0000
0000
0000
0000
0000
0000
,
1001
0000
0000
0000
0000
0000
0100
0000
0000
0000
0000
0000
0011
0000
0000
0000
0000
0000
0100
0000
0000
0000
0000
0000
1000
0000
0000
0000
0000
0000
0001
0000
0000
0000
0000
0000
0110
0000
0000
0000
0000
0000
1000
0000
0000
0000
0000
0000
0001
0000
0000
0000
0000
0000
1000
0000
0000
0000
0000
0000
0100
0000
0000
0000
0010
0000
0000
0000
0000
0000
0000
0000
0001
0000
0000
0000
0000
0000
0110
0000
0000
0000
0000
0000
1000
0000
0000
0000
0000
0000
0001
0000
0000
0000
0000
0000
0110
0000
0000
0000
0000
0000
0000
0000
0000
0000
0000
0000
1100
0000
0000
0000
0000
0000
0010
0000
0000
0000
0000
0000
0001
0000
0000
0000
0000
0000
1000
0000
0000
0000
0000
0000
0110
0000
0000
0000
0000
0000
0001
0000
0000
0000
0000
0000
1100
0000
0000
0000
0000
0000
0010
0000
0000
0000
0000
0000
0001
0000
0000
0000
0000
0000
1100
0000
0000
0000
0000
0000
0010
0000
0000
0000
0000
0000
0001
0000
0000
0000
0000
0000
0010
0000
0000
0000
0000
0000
1100
0000
0000
0000
0000
0000
,
0011
0000
0000
0000
0000
0000
0000
0000
0100
0000
0000
0000
0000
0000
0000
0000
1000
0000
0000
0000
0000
0000
0000
0000
0011
0000
0000
0000
0000
0000
0000
0000
0100
0000
0000
0000
0000
0000
0000
0000
1000
0000
0000
0000
0000
0000
0000
0000
0011
0000
0000
0000
0000
0000
0000
0000
0100
0000
0000
0000
0000
0000
0000
0000
1000
0000
0000
0000
0000
0000
0000
0000
0011
0000
0000
0000
0000
0000
0000
0000
0100
0000
0000
0000
0000
0000
0000
0000
1000
0000
0000
0000
0000
0000
0000
0000
0011
0000
0000
0000
0000
0000
0000
0000
1000
0000
0000
0000
0000
0000
0000
0000
0001
0000
0000
0000
0000
0000
0000
0000
0110
0000
0000
0000
0000
0000
0000
0000
0001
0000
0000
0000
0000
0000
0000
0000
0010
0000
0000
0000
0000
0000
0000
0000
1100
0000
0000
0000
0000
0000
0000
0000
0010
0000
0000
0000
0000
0000
0000
0000
0100
0000
0000
0000
0000
0000
0000
0000
1001
0000
0000
0000
0000
0000
0110
0000
0000
0000
0000
0000
1001
0000
0000
0000
0000
0000
0110
0000
0000
0000
0000
0000
,
1001
0000
0010
1001
0100
0000
0010
0000
0100
1001
0010
0000
0100
0000
0010
0000
0100
0000
1001
0000
0010
0000
0100
0000
1001
0000
0000
1001
0010
0000
0100
0000
0010
1001
0100
0000
0010
0000
0100
0000
0010
0000
1001
0000
0100
0000
1000
0000
,
0011
0000
0000
0000
0000
0000
0000
0000
0100
0000
0000
0000
0011
0000
0000
0000
1000
0000
0000
0000
0000
0000
0000
0000
0100
0000
0000
0000
0000
0000
0000
0000
1000
0000
0000
0000
0011
0000
0000
0000
0100
0000
0000
0000
0000
0000
0000
0000
1000
0000
0000
0000
0000
0000
0000
0000
0100
0000
0000
0000
0000
0000
0000
0000
1000
0000
0000
0000
0000
0000
0000
0000
0122
0000
0000
0000
0000
0000
0000
0000
0000
0000
0000
0000
0100
0000
0000
0000
0000
0000
0000
0000
0000
0000
0000
0000
0100
0000
0000
0000
0000
0000
0000
0000
0000
0000
0000
0000
0100
0000
0000
0000
0000
0000
0000
0000
0000
0000
0000
0000
0100
0000
0000
0000
0000
0000
0000
0000
0000
0000
0000
0000
0100
0000
0000
0000
0000
0000
0000
0000
0000
0000
0000
0000
0133
0000
0000
0000
0000
0000
0000
0000
0000
0000
0000
0000
0011
0000
0000
0000
0000
0000
0100
0000
0000
0000
0000
0000
1000
0000
0000
0000
0000
0000
0011
0000
0000
0000
0000
0000
0100
0000
0000
0000
0000
0000
1000
0000
0000
0000
0000
0000
,
0011
0000
0110
0001
0001
0001
1100
0010
0010
0010
0100
0100
0011
0000
0110
0001
0001
0001
1100
0000
0001
0000
0001
0000
1100
0000
0001
0000
1100
0000
0001
0000
,
0001
0000
0000
0000
0000
0000
0000
0000
0000
0000
0000
0000
1000
0000
0000
0000
0000
0000
0000
0000
0000
0000
0000
0000
0011
0000
0000
0000
0022
0000
0000
0000
0000
0000
0000
0000
0000
0000
0000
0000
0000
0000
0000
0000
0000
0033
0000
0000
0011
0000
0000
0000
0022
0000
0000
0000
0000
0000
0000
0000
0000
0000
0000
0000
M100
0000
0000
0000
0000
0000
0000
0000
1100
0000
0000
0000
0000
0000
0000
0000
0000
0000
0000
0000
0000
0000
0000
0000
0000
0000
0000
0000
0000
0000
0000
0000
1M00
0000
0000
0000
0000
0000
0000
0000
1100
0000
0000
0000
0000
0000
0000
0000
0000
0000
0000
0000
0000
0000
0000
0000
0000
0000
0000
0000
0000
0000
0000
0000
M100
0000
0000
0000
0000
0000
0000
0000
1100
0000
0000
0000
0000
0000
0000
0000
0000
0000
0000
0000
0000
0000
0000
0000
0000
0000
0000
0000
0000
0000
0000
0000
1M00
0000
0000
0000
0000
0000
0000
0000
1100
0000
0000
0000
0000
0000
0000
0000
0000
0000
0000
0000
0000
0000
0000
0000
0000
0000
0000
0000
0000
0000
0000
0000
,
M100
0000
0000
0000
0000
0000
0000
0000
1100
0000
0000
0000
0000
0000
0000
0000
0000
0000
0000
0000
0000
0000
0000
0000
0100
0000
0000
0000
0000
0000
0000
0000
1000
0000
0000
0000
0000
0000
0000
0000
0100
0000
0000
0000
0000
0000
0000
0000
1000
0000
0000
0000
0033
0000
0000
0000
0100
0000
0000
0000
0000
0000
0000
0000
0001
0000
0000
0000
0000
0000
0000
0000
0010
0000
0000
0000
0000
0000
0000
0000
0100
0000
0000
0000
0000
0000
0000
0000
1000
0000
0000
0000
0000
0000
0000
0000
0001
0000
0000
0000
0000
0000
0010
0000
0000
0000
0000
0000
0100
0000
0000
0000
0000
0000
1000
0000
0000
0000
0000
0000
0001
0000
0000
0000
0000
0000
0010
0000
0000
0000
0000
0000
0100
0000
0000
0000
0000
0000
1000
0000
0000
0000
0000
0000
0001
0000
0000
0000
0010
0000
0000
0000
0100
0000
0000
0000
1000
0000
0000
0000
0001
0000
0000
0000
0010
0000
0000
0000
0100
0000
0000
1000
0000
0000
0001
0000
0000
0010
0000
0000
0100
0000
0000
1000
0000
0000
0001
0000
0000
0010
0000
0000
,
1100
1000
1110
0100
1111
0010
1110
0100
1100
1000
1100
0010
1001
0010
1101
0010
,
0011
0001
0101
0100
0100
0100
0110
0010
0010
0010
0011
0011
1110
1000
1110
1000
,
1110
0010
0111
0010
1010
1000
1110
1010
1010
0000
1110
1010
1111
0000
1000
1111
,
1001
1001
1M01
10M0
1MM0
1MM0
1MM0
1MM0
100M
1MM0
100M
10MM
1000
1M0M
1M00
1M0M
,
1111
0001
0011
0001
0111
0001
1111
0001
0111
0001
0011
0001
0001
0001
0011
0001
,
0111
0001
1111
0001
0111
0001
0011
0001
0001
0001
0011
0001
0111
0001
1111
0001
,
0111
0001
0011
0001
0001
0001
0011
0001
0111
0001
1111
0001
0111
0001
0011
0001
,
0001
0001
0011
0001
0111
0001
1111
0001
0111
0001
0011
0001
0001
0001
0011
0001
,
0111
0000
0001
0000
1111
0000
0011
0000
1111
0000
0110
0000
1111
0000
1100
0000
0011
0011
1100
1100
0011
0011
1100
1100
0011
0011
1100
1100
0011
0011
1100
0000
;

//---------------dance-single - Copied from----------------
#NOTES:
     dance-single:
     Copied from:
     Challenge:
     13:
     1.000,1.000,1.000,0.993,1.000,410.000,137.000,78.000,0.000,66.000:
0000
0000
0000
0000
,
1020
0000
0001
0000
0101
0000
1000
0001
0101
0000
0001
0000
0101
0000
0001
0000
,
1230
0000
0010
0000
1001
0000
0010
0001
0011
0001
0001
0000
1010
0000
0001
0000
,
2301
0000
0010
0000
0101
0000
0010
0001
0101
0000
0001
0000
0110
0000
0001
0000
,
0101
0000
0000
0000
0000
0000
0010
0000
0000
0000
0000
0000
0101
0000
0000
0000
0000
0000
0010
0000
0000
0001
0000
0000
0011
0000
0000
0011
0000
0000
0011
0000
0000
3100
0000
0000
1000
0000
0000
0001
0000
0000
0010
0000
0100
1000
0001
0000
,
0120
0000
0001
0000
1100
0000
0100
0001
1001
0000
0001
0000
1100
0000
0001
0000
,
1230
0000
0001
0000
0010
0010
1010
0011
0011
0001
0001
0000
1010
0000
0001
0000
,
2301
0000
0010
0000
0101
0000
0010
0001
0011
0000
0001
0000
0110
0000
0001
0000
,
0101
0000
0000
0000
0000
0000
0010
0000
0000
0000
0000
0000
0110
0000
0000
0000
0000
0000
0010
0000
0000
0001
0000
0000
0101
0000
0000
0011
0000
0000
0001
0000
0010
0000
0100
0000
0001
0000
0000
0100
0000
0000
3010
0000
0000
0001
0000
0000
,
1020
0000
0100
0000
1001
0000
1000
0001
0101
0000
0001
0000
1100
0000
0001
0000
,
0231
0000
1000
0000
0011
0000
1000
0001
0011
0001
0001
0000
1010
0000
0001
0000
,
2301
0000
0100
0000
0011
0000
0100
0001
0101
0000
0001
0000
0110
0000
0001
0000
,
0101
0000
0000
0000
0000
0000
0100
0000
0000
0000
0000
0000
0011
0000
0000
0000
0000
0000
0100
0000
0000
0001
0000
0000
0011
0000
0000
0001
0000
0000
0001
0000
0000
0000
0000
0000
3110
0000
0000
1000
0000
0000
1001
0000
0010
1000
0100
0000
,
1020
1000
0000
1000
1000
1000
0000
1000
1000
1000
0000
1000
1000
1000
0000
1000
,
1230
1000
0000
1000
1000
1000
0000
1000
1000
1000
0000
1000
1000
1000
0000
1000
,
1302
1000
0000
1000
1000
1000
0000
1000
1000
1000
0000
1000
1000
1000
0000
1000
,
1000
0000
0000
1000
0000
0000
0000
0000
0000
1000
0000
0000
1000
0000
0000
1000
0000
0000
0000
0000
0000
1000
0000
0000
1000
0000
0100
0000
0010
0000
1000
0000
0100
0000
0010
0000
1003
0000
0000
0001
0000
0000
0010
0000
0000
0001
0000
0000
,
0200
0000
0000
0300
0000
0000
0000
0000
0000
0200
0000
0000
0300
0000
0000
0000
0000
0000
0200
0000
0000
0300
0000
0000
0000
0000
0000
0210
0000
0000
0300
0000
0000
0000
0000
0000
0210
0000
0000
0300
0000
0000
0210
0000
0001
0300
0010
0000
,
2001
3200
0001
0320
1100
0000
1032
0003
2010
3200
0001
0320
1001
0000
0132
0003
,
2001
3200
0001
0320
1001
0000
0132
0003
1100
0000
0012
0003
1020
0030
1200
0300
,
2001
3200
0310
0002
1100
0003
2010
3200
1310
0002
1000
0003
0102
0003
1020
0000
,
1001
0000
0000
0000
0000
0000
1230
0000
0000
0300
0000
0000
2001
0000
0000
3000
0000
0000
0021
0000
0000
0030
0000
0000
1100
0000
0000
0020
0000
0000
1030
0000
0000
0000
0000
0000
0120
0000
0000
0030
0000
0000
1020
0000
0001
0030
0100
0000
,
2001
3200
0001
0320
1000
0000
0132
0003
2010
3200
0001
0320
1000
0000
0132
0003
,
2010
3200
0001
0320
1000
1000
1032
1003
1000
0000
0102
0003
1020
0030
1200
0300
,
2001
3200
0310
0002
0103
0000
2010
3200
1310
0002
0103
0000
1002
0003
1020
0030
,
1010
0000
0000
0000
0000
0000
0120
0000
0000
0030
0000
0000
0021
0000
0000
0000
0000
0000
0100
0000
0000
0000
0000
0000
1000
0000
0000
0100
0000
0000
0001
0000
0100
0000
1000
0000
0100
0000
0000
0001
0000
0000
0100
0000
0000
0001
0000
0000
,
1000
0000
0000
1000
0000
0000
1030
0000
0000
1000
0000
0000
1000
0000
0000
1000
0000
0000
1000
0000
0000
1000
0000
0000
1000
0000
0100
1000
0010
0000
1001
0000
0100
0000
0010
0000
0001
0000
1000
0000
0100
0000
0010
0000
0001
0000
0100
0000
,
1020
0100
0000
0100
0000
0000
0230
0001
1000
0000
0000
0000
1000
0010
2301
0000
,
0000
0000
0100
0001
0010
0000
0000
0000
0000
0000
0010
0010
3100
0000
0010
0010
,
0021
0100
0000
0100
0000
0000
0231
0010
0000
0010
0000
0000
0010
0000
2301
0000
,
0000
0000
0000
0001
0000
0000
0000
0000
0000
0000
0000
0000
0001
0100
3010
0001
,
1000
1100
0010
1001
1000
1000
0010
1001
1100
1000
0000
1000
1100
1010
0001
1000
,
1000
0000
0000
1000
0000
0000
0010
0000
0000
1001
0000
0000
1100
0000
0000
1000
0000
0000
0000
0000
0000
1000
0000
0000
1000
0000
0000
1000
0000
0000
0010
0000
0000
1010
0000
0000
1001
0000
0000
1000
0000
0000
0001
0000
0010
1001
0100
0000
,
1010
1001
0000
1001
1000
1000
0010
1001
1000
1001
0000
1000
1010
1000
0001
1000
,
1001
0000
0000
1000
0000
0000
0000
0000
0000
1010
0000
0000
1100
0000
0000
1000
0000
0000
0000
0000
0000
1000
0000
0000
1000
0000
0000
1000
0000
0000
0000
0000
0000
1000
0000
0000
1100
0000
0000
1000
0000
0000
0001
0000
0010
1000
0100
0000
,
1001
1000
0100
1000
1010
1000
0001
1000
1100
1001
0110
1100
1001
1010
0011
1001
;
